#TITLE:Szamar Madar;
#SUBTITLE:;
#ARTIST:Venetian Snares;
#TITLETRANSLIT:;
#SUBTITLETRANSLIT:;
#ARTISTTRANSLIT:;
#CREDIT:;
#BANNER:szamarmadar-bn.png;
#BACKGROUND:szamarmadar-bg.png;
#LYRICSPATH:;
#CDTITLE:cdtitle.PNG;
#MUSIC:Venetian Snares - Szamar Madar.mp3;
#OFFSET:-0.200;
#SAMPLESTART:6.340;
#SAMPLELENGTH:15.000;
#SELECTABLE:YES;
#BPMS:0.000=174.000,304.000=87.000,320.000=174.000;
#STOPS:;
#BGCHANGES:;
// cache tags:
#FIRSTBEAT:28.000;
#LASTBEAT:404.000;
#SONGFILENAME:Songs/Music V.I.P ^_^/(Zaghurim) Szamar Madar/Szamar Madar.sm;
#HASMUSIC:1;
#HASBANNER:1;
#MUSICLENGTH:149.556;
// end cache tags

//---------------dance-single - ----------------
#NOTES:
     dance-single:
     :
     Hard:
     12:
     1.000,1.000,1.000,0.020,1.000,987.000,277.000,3.000,0.000,0.000:
0000
0000
0000
0000
,
0000
0000
0000
0000
,
0000
0000
0000
0000
,
0000
0000
0000
0000
,
0000
0000
0000
0000
,
0000
0000
0000
0000
,
0000
0000
0000
0000
,
1010
0000
0010
0000
0011
0000
0001
0100
0001
0100
0011
0000
0010
0000
0011
0000
,
1100
0000
0000
0000
0000
0000
0000
0000
0000
1100
0000
0000
1001
0000
0000
0001
0100
0001
1100
0000
0000
0010
0000
0000
,
0110
0000
0000
0000
0000
0000
1000
0000
0000
0001
0000
0000
1000
0000
0000
0001
0000
0000
1100
0000
0000
0000
0000
0000
0011
0000
0000
0000
0000
0000
1000
0000
0010
0000
1000
0000
0011
0000
0000
0000
0000
0000
0001
0000
0000
1000
0000
0000
,
0001
0000
0000
1000
0000
0000
0001
0000
0000
1000
0000
0000
0011
0000
0000
0000
0000
0000
1000
0000
0100
0000
1000
0000
0110
0000
0000
0000
0000
0000
0001
0000
0000
0000
0000
0000
0101
0000
0000
0000
0000
0000
0100
0000
0000
0010
0000
0000
,
0100
0010
1100
0000
0100
0000
0101
0000
0001
0100
0001
0100
1010
0000
0000
0000
,
1001
0000
0000
0000
0000
0000
0100
0000
0010
0000
0100
0000
0011
0000
0000
0000
0000
0000
0010
0000
0000
1100
0000
0000
0011
0000
0000
0000
0000
0000
1100
0000
0000
0000
0000
0000
0100
0000
0000
1000
0000
0000
0110
0000
0000
0000
0000
0000
,
1001
0000
0000
0000
1001
0000
0110
0000
1001
0000
0100
0000
0001
0000
0100
0000
0001
0000
0100
0000
0011
0000
0000
0000
1100
0000
0000
0000
1000
0100
0010
0001
,
1100
0000
0001
0000
1001
0000
1000
0001
1000
0001
1100
0000
0100
0000
0101
0000
,
1010
0000
0000
0000
0000
0000
1010
0000
0000
0000
0000
0000
1001
0000
0000
0001
0010
0100
1001
0000
0000
0010
0000
0000
,
1010
0000
1000
0010
1000
0010
1100
0000
0000
0000
0011
0000
1100
0000
0001
1000
,
0010
0000
0000
0100
0000
0000
0011
0000
0000
0000
0000
0000
1100
0000
0000
0000
0000
0000
1000
0000
0100
0000
0010
0000
1001
0000
0000
0000
0000
0000
1000
0000
0000
0000
0000
0000
1010
0000
0000
0000
0000
0000
1001
0000
0000
0000
0000
0000
,
1010
0000
0000
0000
0000
0000
1000
0000
0001
0000
1000
0000
0010
0000
0000
0100
0000
0000
0011
0000
0000
0000
0000
0000
0000
0000
0000
0000
0000
0000
1100
0000
0000
0000
0000
0000
0000
0000
0000
0000
0000
0000
1100
0000
0000
0000
0000
0000
,
1001
0000
0000
0000
0000
0000
0001
0000
0100
0000
0001
0000
1100
0000
0000
0000
0000
0000
0010
0000
0000
1100
0000
0000
0011
0000
0000
0000
0000
0000
1100
0000
0000
0000
0000
0000
1100
0000
0000
0000
0000
0000
0001
0000
0000
0010
0000
0000
,
1100
0000
0000
0000
0001
0000
0010
0000
1001
0000
0000
0000
0000
0000
0000
0000
0000
0000
0000
0000
0000
0000
0000
0000
0000
0000
0000
0000
0000
1000
0100
0010
,
1001
0000
1000
0000
1010
0000
0101
0000
0010
0000
1001
0000
1001
0100
0010
0100
,
1001
0000
0000
0000
0000
0000
0001
0000
0000
0000
0000
0000
0101
0000
0000
0000
0000
0000
0100
0000
0000
0010
0000
0000
1000
0000
0000
0010
0000
0000
1100
0000
0000
0000
0000
0000
1100
0000
0000
0000
0000
0000
0010
0000
0100
0000
0010
0000
,
0101
0000
0011
0000
0011
0000
1010
0000
1010
0000
1001
0000
0100
0001
0100
0011
,
1100
0000
0010
0100
1001
0000
0110
0000
1001
0000
1000
0000
1001
0000
1001
0100
,
0010
0100
1001
0000
1001
0000
0100
0010
1100
0010
0100
0000
0101
0000
0001
1000
,
0001
0000
0000
1000
0000
0000
0011
0000
0000
0000
0000
0000
0011
0000
0000
0000
0000
0000
0001
0000
0010
0000
0100
0000
1001
0000
0000
0000
0000
0000
1000
0000
0000
0000
0000
0000
1001
0000
0000
0000
0000
0000
1000
0000
0000
0000
0000
0000
,
1000
0100
0011
0000
0011
0000
0010
1000
0010
0100
0010
1000
0010
0000
0010
0000
,
1001
0000
1000
0000
1010
0000
0010
0100
0010
0000
0010
0100
0010
1000
0010
0100
,
0010
0000
0000
0000
0000
0000
0000
0000
0000
0000
0000
0000
0001
0000
0000
1000
0000
0000
0001
0000
0000
0100
0000
0000
0001
0000
0000
0000
0000
0000
0001
0000
0000
0000
0000
0000
1000
0000
0000
0000
0000
0000
1000
0000
0100
0000
0010
0000
,
0001
0000
0001
0000
0010
0000
0010
0000
1000
0100
0010
0001
1000
0001
1000
0001
,
1100
0000
1100
0010
0001
0000
1100
0000
1000
0000
1000
0000
1001
0000
0001
0000
,
0001
0100
0001
0100
0010
0000
0010
1000
0100
0000
0100
0000
0101
0000
0001
0100
,
0010
0000
0000
1000
0000
0000
0011
0000
0000
0000
0000
0000
1001
0000
0000
0000
0000
0000
1000
0000
0100
0000
1000
0000
0110
0000
0000
0000
0000
0000
0101
0000
0000
0000
0000
0000
1001
0000
0000
0000
0000
0000
0000
0000
0000
0000
0000
0000
,
1001
0000
0000
0000
0000
0000
0000
0000
1001
0000
0000
0000
0000
0000
0000
0000
1001
0000
0000
0000
0000
0000
0000
0000
0000
0000
0000
0000
0000
1000
0100
0010
,
1001
0000
0010
0100
0010
1000
0010
0000
0010
1000
0010
0000
0000
0100
0001
0000
,
0010
0000
0010
0000
1010
0000
0010
1000
0010
0100
0011
0000
1000
0000
1000
0000
,
1001
0000
0000
0000
0000
0000
0001
0000
0000
0100
0000
0000
0001
0000
0000
0100
0000
0000
0001
0000
0000
0000
0000
0000
1001
0000
0000
0000
0000
0000
0100
0000
0010
0000
0100
0000
0011
0000
0000
0000
0000
0000
1000
0000
0000
0100
0000
0000
,
1000
0000
0000
0100
0000
0000
1000
0000
0000
0100
0000
0000
0011
0000
0000
0000
0000
0000
0001
0000
0100
0000
0001
0000
1100
0000
0000
0000
0000
0000
0010
0000
0000
1000
0000
0000
0010
0000
0000
0100
0000
0000
0010
0000
0000
1000
0000
0000
,
0000
1000
0010
1000
0000
1000
0010
0100
0010
0000
0110
0000
0110
0000
0001
0000
,
1001
0000
0000
0000
,
0000
0000
0000
0000
0000
0000
0000
0000
0001
0000
0000
0000
0001
0000
0000
0000
0001
0000
0000
0000
0001
0000
0000
0000
0001
0000
0000
0000
0001
0010
0100
1000
,
0001
0000
0001
0000
1100
0000
0001
0000
0001
0010
1100
0000
1000
0001
1000
0001
,
0100
0001
0100
0000
0001
0000
0010
0000
0010
0000
0001
0000
0010
1000
0010
1000
,
0010
0100
0001
0100
0010
1000
0010
0100
0001
0000
0001
0000
1001
0000
0001
0100
,
0011
0000
0010
0100
1000
0000
1000
0000
1001
0000
0001
0000
0101
0000
0100
0000
,
0100
0000
0101
0000
0001
0100
0010
1000
0010
0000
0010
0000
1010
0000
1000
0010
,
0100
0010
1000
0000
0010
0100
0010
1000
0010
0000
1010
0000
0010
1000
0010
0100
,
0011
0000
0001
0000
0011
0000
1000
0001
1100
0000
1000
0001
1100
0000
1010
0000
,
1001
0000
0001
0000
0101
0000
0010
1000
0010
0100
0010
0000
0010
1000
0010
0100
,
0010
0000
0000
0000
0000
0000
0000
0000
0000
0000
0000
0000
0001
0000
0000
0100
0000
0000
0010
0000
0000
1000
0000
0000
0010
0000
0000
0000
0000
0000
0010
0000
0000
0000
0000
0000
1001
0000
0000
0000
0000
0000
0010
0000
0100
0000
0010
0000
,
0101
0000
0011
0000
1100
0000
1010
0000
0001
1000
0001
1000
0001
1000
0001
1000
,
0011
0000
0011
0100
0001
0100
0011
0100
0001
0000
0001
0000
1001
0000
1001
0000
,
0010
0100
0010
1000
0010
0000
0100
0010
1100
0000
0010
0100
0011
0000
0001
0100
,
0010
0000
0000
1000
0000
0000
0011
0000
0000
0000
0000
0000
0011
0000
0000
0000
0000
0000
0001
0000
0010
0000
0100
0000
1000
0000
0000
0000
0000
0000
0011
0000
0000
0000
0000
0000
1001
0000
0000
0000
0000
0000
0000
0000
0000
0000
0000
0000
,
1001
0000
0000
0000
0000
0000
0011
0100
0010
0100
0010
0100
0010
0000
0000
0000
0000
0000
0011
0100
0010
0100
0010
0100
,
0011
0000
0000
0000
0010
1000
0010
0100
0010
0000
0010
1000
0010
0100
0010
0000
,
1000
0000
1000
0000
1001
0000
0001
0100
0010
1000
0010
0000
0010
1000
0010
0100
,
0010
0000
0000
0000
0000
0000
2100
0000
0000
3000
0000
0000
0012
0000
0000
0003
0000
0000
0100
0000
0010
0000
0100
0000
0011
0000
0000
0000
0000
0000
1002
0000
0000
0000
0000
0000
0000
0000
0000
0000
0000
0000
0003
0000
0000
0010
0000
0000
,
1100
0001
0100
0001
0100
0010
1001
0000
0101
0000
0001
0000
0001
0000
0101
0000
,
0100
0000
0100
0000
0110
0000
0010
0001
0110
0000
0100
0000
0101
0000
0001
0000
,
1001
0000
0000
1000
0000
0000
1001
0000
0000
0001
0100
0010
1000
0000
0000
0101
0000
0000
1010
0000
0000
1100
0000
0000
,
1000
0100
0011
0000
0011
0000
0000
0010
1000
0010
0100
0010
1000
0010
0100
0000
,
1001
0000
1000
0000
1010
0000
1000
0001
1000
0010
1000
0000
0001
1000
0001
1000
,
0011
0000
0000
0000
0000
0000
0001
0000
0000
1000
0000
0000
0011
0000
0000
0000
0000
0000
0100
0000
0000
0000
0000
0000
0010
0000
0000
0010
0000
0000
0010
0000
0000
0000
0000
0000
0010
0000
0000
0000
0000
0000
1000
0000
0100
0000
0010
0000
,
0001
0000
0001
0000
0001
0000
0001
0100
0001
0100
0011
0000
1100
0000
0110
0000
,
1001
0000
0000
0110
0000
0000
0001
0010
0100
1000
0000
0000
1001
0000
0000
1000
0000
0000
1010
0000
0000
0101
0000
0000
,
0001
0000
1001
0000
0110
0000
0010
0100
0011
0000
1000
0100
0011
0000
0001
0100
,
0001
0000
0000
1000
0000
0000
0001
0000
0000
0000
0000
0000
0001
0000
0000
0000
0000
0000
1000
0000
0100
0000
0010
0000
0001
0000
0000
0000
0000
0000
0001
0000
0000
0000
0000
0000
0001
0000
0000
0000
0000
0000
1001
0000
0000
0000
0000
0000
,
1001
0000
0001
0000
0001
0000
0001
0010
0100
0000
0100
0010
0100
0001
0100
0010
,
1001
0000
0010
1000
0001
0100
0010
1000
0010
0100
0010
0000
0010
1000
0010
0000
,
1010
0000
0010
0000
0011
0000
0001
0100
0010
1000
0011
0000
1100
0000
0100
0000
,
0101
0000
0000
0000
0000
0000
1000
0000
0000
0001
0000
0000
1000
0000
0000
0001
0000
0000
1100
0000
0000
0000
0000
0000
0011
0000
0000
0000
0000
0000
0010
0000
0100
0000
0010
0000
1100
0000
0000
0000
0000
0000
0010
0000
0000
0100
0000
0000
,
0010
0000
0000
0100
0000
0000
0010
0000
0000
0100
0000
0000
1001
0000
0000
0000
0000
0000
0001
0000
0100
0000
0001
0000
0110
0000
0000
0000
0000
0000
0100
0000
0000
0001
0000
0000
0100
0000
0000
0010
0000
0000
0100
0000
0000
0001
0000
0000
,
0000
0001
0100
0001
0000
0001
0100
0010
0100
0000
0011
0000
0011
0000
0001
0000
,
1001
1001
0110
0000
0000
0000
0000
0000
,
0000
0000
0000
0000
,
0000
0000
0000
0000
,
0000
0000
0000
0000
,
0000
0000
0000
0000
,
1001
0000
0010
1000
0001
0100
0001
0000
0100
0010
0100
0000
0010
1000
0010
0000
,
1010
0000
0010
0000
0011
0000
0001
0100
0010
1000
0011
0000
1010
0000
0010
0000
,
0011
0000
0000
0000
0000
0000
0100
0000
0000
0001
0000
0000
0100
0000
0000
0001
0000
0000
1100
0000
0000
0000
0000
0000
0011
0000
0000
0000
0000
0000
0001
0000
0100
0000
0001
0000
1100
0000
0000
0000
0000
0000
0010
0000
0000
0100
0000
0000
,
0010
0000
0000
0100
0000
0000
0010
0000
0000
0100
0000
0000
0011
0000
0000
0000
0000
0000
0001
0000
0010
0000
0001
0000
0110
0000
0000
0000
0000
0000
0001
0000
0000
1000
0000
0000
0010
0000
0000
0100
0000
0000
0010
0000
0000
0000
0000
0000
,
1000
0010
1000
0000
0000
0100
0001
0100
0001
0000
1001
0000
1001
0000
0001
0000
,
0101
0101
0011
0001
0001
0001
0001
0001
,
0001
0000
0000
0000
0001
0000
0000
0000
0001
0000
0000
0000
0001
0000
0000
0000
0001
0000
0000
0000
0001
0000
0000
0000
0001
0000
0000
0000
0001
0010
0100
1000
,
0001
0000
0001
0010
1100
0000
0100
0010
1100
0000
1000
0100
0011
0000
0010
0000
,
1010
0000
0010
0100
0010
1000
0010
0100
0010
1000
0011
0000
1001
0000
1001
0000
,
0110
0000
0000
0000
0000
0000
0110
0000
0000
0000
0000
0000
0001
0000
0000
1000
0000
0000
0010
0000
0000
0100
0000
0000
0001
0000
0000
1000
0000
0000
0011
0000
0000
0000
0000
0000
1000
0000
0100
0000
0010
0000
0001
0000
0000
0000
0000
0000
,
1001
0000
0000
0000
0000
0000
1001
0000
0000
0000
0000
0000
0001
0000
0010
0000
0100
0000
1000
0000
0000
0000
0000
0000
1010
0000
0000
0000
0000
0000
1000
0000
0000
0010
0000
0000
1100
0000
0000
0000
0000
0000
0100
0000
0000
0000
0000
0000
,
0110
0000
0010
0100
0011
0000
0001
0000
0101
0000
0100
0001
0100
0000
0100
0000
,
0110
0000
1001
0000
0110
0000
0110
0000
1001
0000
1001
0000
0001
1000
0001
1000
,
0001
0000
0000
1000
0000
0000
0011
0000
0000
0000
0000
0000
0001
0000
0010
0000
0100
0000
1001
0000
0000
0000
0000
0000
1010
0000
0000
0000
0000
0000
1100
0000
0000
0000
0000
0000
1000
0000
0100
0000
0010
0000
0001
0000
0000
0000
0000
0000
,
1001
0000
0001
0100
0001
0000
0001
0000
1001
0000
0001
0100
0010
1000
0011
0000
,
1100
0000
1000
0100
0011
0000
0001
0100
0010
1000
0011
0000
0101
0000
0101
0000
,
1001
0000
0000
0000
0000
0000
1001
0000
0000
0000
0000
0000
0001
0000
0000
1000
0000
0000
0001
0000
0000
0000
0000
0000
1000
0000
0000
0100
0000
0000
0011
0000
0000
0000
0000
0000
1000
0000
0001
0000
0010
0000
1100
0000
0000
0000
0000
0000
,
1100
0000
0000
0000
0000
0000
0011
0000
0000
0000
0000
0000
1000
0000
0100
0000
0010
0000
0001
0000
0000
0000
0000
0000
1001
0000
0000
0000
0000
0000
0010
0000
0000
0100
0000
0000
0011
0000
0000
0000
0000
0000
0001
0000
0000
0100
0000
0000
,
0010
1000
0011
0000
0001
0100
0010
1000
0011
0000
0011
0000
0011
1100
0011
1100
,
0001
0100
0001
0000
1010
0000
0100
0000
0101
0000
0100
0000
0100
0000
0101
0000
,
1010
0000
0000
0000
0000
0000
0000
0000
0000
0000
0000
0000
0000
0000
0000
0000
0000
0000
0000
0000
0000
0000
0000
0000
0010
0000
0000
0000
0000
0000
0000
0000
0000
0000
0000
0000
0000
0000
0000
0000
0000
0000
0000
0000
0000
0000
0000
0000
0010
0000
0000
0000
0000
0000
0000
0000
0000
0000
0000
0000
0000
0000
0000
0000
0000
0000
0000
0000
0000
0000
0000
0000
0010
0000
0000
0000
0000
0000
0000
0000
0001
0000
0000
0000
0000
0000
0000
0000
0100
0000
0000
0000
0000
0000
0000
0000
0010
0000
0000
0000
0000
0000
0000
0000
0000
0000
0000
0000
0001
0000
0000
0000
0000
0000
0000
0000
0000
0000
0000
0000
0010
0000
0000
0000
0000
0000
0000
0000
0000
0000
0000
0000
0100
0000
0000
0000
0000
0000
0000
0000
0000
0000
0000
0000
1000
0000
0000
0000
0000
0000
0100
0000
0000
0000
0000
0000
0010
0000
0000
0000
0000
0000
0001
0000
0000
0000
0000
0000
1000
0000
0000
0000
0000
0000
0000
0000
0010
0000
0000
0000
0000
0000
0000
0000
0100
0000
0000
0000
0000
0000
0000
0000
,
1001
0000
0000
0000
;
